所有分类
  • 所有分类
  • 站内首发

[日剧][MagicStar] 9界线 / 9ボーダー EP04 [WEBDL] [1080p]【生】【附日字】

簡介: 

HD 1080p from TVer.
Japanese subtitles added.
[MagicStar] 9界线 / 9ボーダー EP04 [WEBDL] [1080p]【生】【附日字】
[MagicStar] 9界线 / 9ボーダー EP04 [WEBDL] [1080p]【生】【附日字】

General Unique ID                      : 284812017311315197707698481572684261636 (0xD644CC9CB4553A3BBA33C51EF34C6904) Complete name                  : [MagicStar] 9 Border EP04 [WEBDL] [1080p].mkv Format                         : Matroska Format version                 : Version 4 File size                      : 929 MiB Duration                       : 44 min 58 s Overall bit rate               : 2 887 kb/s Frame rate                     : 29.970 FPS Encoded date                   : 2024-05-11 04:04:53 UTC Writing application            : mkvmerge v50.0.0 ('Awakenings') 64-bit Writing library                : libebml v1.4.0 + libmatroska v1.6.2  Video ID                             : 1 Format                         : AVC Format/Info                    : Advanced Video Codec Format profile                 : High@L4 Format settings                : CABAC / 4 Ref Frames Format settings, CABAC         : Yes Format settings, Reference fra : 4 frames Codec ID                       : V_MPEG4/ISO/AVC Duration                       : 44 min 58 s Bit rate                       : 2 693 kb/s Width                          : 1 920 pixels Height                         : 1 080 pixels Display aspect ratio           : 16:9 Frame rate mode                : Constant Frame rate                     : 29.970 (29970/1000) FPS Original frame rate            : 29.970 (30000/1001) FPS Color space                    : YUV Chroma subsampling             : 4:2:0 Bit depth                      : 8 bits Scan type                      : Progressive Bits/(Pixel*Frame)             : 0.043 Stream size                    : 866 MiB (93%) Default                        : Yes Forced                         : No Color range                    : Limited Color primaries                : BT.709 Transfer characteristics       : BT.709 Matrix coefficients            : BT.709  Audio ID                             : 2 Format                         : AAC LC Format/Info                    : Advanced Audio Codec Low Complexity Codec ID                       : A_AAC-2 Duration                       : 44 min 58 s Bit rate                       : 192 kb/s Channel(s)                     : 2 channels Channel layout                 : L R Sampling rate                  : 48.0 kHz Frame rate                     : 46.875 FPS (1024 SPF) Compression mode               : Lossy Stream size                    : 61.7 MiB (7%) Title                          : 日本語 [オリジナル] Language                       : Japanese Default                        : Yes Forced                         : No

  • BT列表

會員專用連接: [MagicStar] 9界线 / 9ボーダー EP04 [WEBDL] [1080p]【生】【附日字】

Magnet連接: magnet:?xt=urn:btih:LW3VHCVVGMVFB3MJ3HDAJVWYALQIL765

custom protocol

Magnet連接typeII: magnet:?xt=urn:btih:5db7538ab5332a50ed89d9c604d6d802e085ffdd

在线播放: 保存至云端 ?

彈幕播放連接: ddplay:magnet:?xt=urn:btih:LW3VHCVVGMVFB3MJ3HDAJVWYALQIL765 播放器官方下載地址

Tip1:【PCgal汉化合集5000个 8T + 安卓gal汉化合集800个 900G + 漫画合集2300个 100G

警告!网盘内存不足!根本下不完!
Tip2:【包含压缩包或可执行文件,请仔细辨别,查毒
Tip3:善意提醒
对于容量很小的内容请多加留意,多半是捆绑病毒和木马的资源。
对于视频文件采用压缩包形式发布的,也请看清楚其真实的目的,建议坚决抵制该类下载(经验告诉我们,这些大都是捆绑了木马病毒或广告资料或者是加了密码的无良人士发布的)。
如果发现上述问题,请及时向我们举报。

原文链接:https://www.ogsgame.com/wangju/2024/05/197614/,转载请注明出处。如有侵权,联系侵删!

0

评论0

请先

全站精选银河系优质资源,每日急速更新,含游戏,动漫,漫画剧集,破解app等!
显示验证码
没有账号?注册  忘记密码?
隐藏
变装