所有分类
  • 所有分类
  • 站内首发

[日剧]【2023日影】[MagicStar] 世界尽头 / さいはて [WEBDL] [1080p] [AMZN]【生】

簡介: 

HD 1080p from Prime Video.
Use CBR bitrate mode.


We are planning to upload all Prime Video Japan Dramas and Movies, we need your Support!


Support Us

Ali (Zhifubao / QR code): https://i.ibb.co/FWV2ggm/1660626347125.png
PayPalMe: https://www.paypal.com/paypalme/sakuragikenji
BTC (USDT): 19y5NF6voysif7PeJLv86Hf186ZS1i4rwu
ETH: 0x807B4eec355Cfa65500BeE65A992a9a0d8432697
LTC: LUC2dTQkte7muv5oUUuRNJimLJvi9pgZUQ


【2023日影】[MagicStar] 世界尽头 / さいはて [WEBDL] [1080p] [AMZN]【生】
【2023日影】[MagicStar] 世界尽头 / さいはて [WEBDL] [1080p] [AMZN]【生】

General Unique ID                      : 329107632066926711613590686970119857909 (0xF797D308C264E40C85DFCDB4C24626F5) Complete name                  : Saihate.2023.1080p.AMZN.WEB-DL.DDP5.1.H.264-MagicStar.mkv Format                         : Matroska Format version                 : Version 4 File size                      : 7.30 GiB Duration                       : 1 h 52 min Overall bit rate mode          : Constant Overall bit rate               : 9 276 kb/s Frame rate                     : 23.976 FPS Encoded date                   : 2024-04-23 05:07:53 UTC Writing application            : mkvmerge v50.0.0 ('Awakenings') 64-bit Writing library                : libebml v1.4.0 + libmatroska v1.6.2 Cover                          : Yes Attachments                    : cover.jpg  Video ID                             : 1 Format                         : AVC Format/Info                    : Advanced Video Codec Format profile                 : High@L4 Format settings                : CABAC / 4 Ref Frames Format settings, CABAC         : Yes Format settings, Reference fra : 4 frames Codec ID                       : V_MPEG4/ISO/AVC Duration                       : 1 h 52 min Bit rate mode                  : Constant Bit rate                       : 8 634 kb/s Nominal bit rate               : 10 000 kb/s Width                          : 1 920 pixels Height                         : 1 040 pixels Display aspect ratio           : 1.85:1 Frame rate mode                : Constant Frame rate                     : 23.976 (24000/1001) FPS Color space                    : YUV Chroma subsampling             : 4:2:0 Bit depth                      : 8 bits Scan type                      : Progressive Bits/(Pixel*Frame)             : 0.180 Stream size                    : 6.79 GiB (93%) Default                        : Yes Forced                         : No Color range                    : Limited Color primaries                : BT.709 Transfer characteristics       : BT.709 Matrix coefficients            : BT.709  Audio ID                             : 2 Format                         : E-AC-3 Format/Info                    : Enhanced AC-3 Commercial name                : Dolby Digital Plus Codec ID                       : A_EAC3 Duration                       : 1 h 52 min Bit rate mode                  : Constant Bit rate                       : 640 kb/s Channel(s)                     : 6 channels Channel layout                 : L R C LFE Ls Rs Sampling rate                  : 48.0 kHz Frame rate                     : 31.250 FPS (1536 SPF) Compression mode               : Lossy Stream size                    : 515 MiB (7%) Title                          : 日本語 [オリジナル] Language                       : Japanese Service kind                   : Complete Main Default                        : Yes Forced                         : No

  • BT列表

會員專用連接: 【2023日影】[MagicStar] 世界尽头 / さいはて [WEBDL] [1080p] [AMZN]【生】

Magnet連接: magnet:?xt=urn:btih:JGJGA5NAVFWQTNKU3SOEBQS2ZYHFMVJM

custom protocol

Magnet連接typeII: magnet:?xt=urn:btih:49926075a0a96d09b554dc9c40c25ace0e56552c

在线播放: 保存至云端 ?

彈幕播放連接: ddplay:magnet:?xt=urn:btih:JGJGA5NAVFWQTNKU3SOEBQS2ZYHFMVJM 播放器官方下載地址

Tip1:【PCgal汉化合集5000个 8T + 安卓gal汉化合集800个 900G + 漫画合集2300个 100G

警告!网盘内存不足!根本下不完!
Tip2:【包含压缩包或可执行文件,请仔细辨别,查毒
Tip3:善意提醒
对于容量很小的内容请多加留意,多半是捆绑病毒和木马的资源。
对于视频文件采用压缩包形式发布的,也请看清楚其真实的目的,建议坚决抵制该类下载(经验告诉我们,这些大都是捆绑了木马病毒或广告资料或者是加了密码的无良人士发布的)。
如果发现上述问题,请及时向我们举报。

原文链接:https://www.ogsgame.com/wangju/2024/05/197574/,转载请注明出处。如有侵权,联系侵删!

0

评论0

请先

全站精选银河系优质资源,每日急速更新,含游戏,动漫,漫画剧集,破解app等!
显示验证码
没有账号?注册  忘记密码?
隐藏
变装