所有分类
  • 所有分类
  • 站内首发

[日剧]【2023日影】[MagicStar] 飞翔吧埼玉 ~来自琵琶湖的爱~ / 翔んで埼玉 ~琵琶湖より愛をこめて~ [WEBDL] [1080p] [U-NEXT]【生】

簡介: 

HD 1080p from U-NEXT.


We are planning to upload all U-NEXT Dramas and Movies, we need your Support!


Support Us

Ali (Zhifubao / QR code): https://i.ibb.co/FWV2ggm/1660626347125.png
PayPalMe: https://www.paypal.com/paypalme/sakuragikenji
BTC (USDT): 19y5NF6voysif7PeJLv86Hf186ZS1i4rwu
ETH: 0x807B4eec355Cfa65500BeE65A992a9a0d8432697
LTC: LUC2dTQkte7muv5oUUuRNJimLJvi9pgZUQ


【2023日影】[MagicStar] 飞翔吧埼玉 ~来自琵琶湖的爱~ / 翔んで埼玉 ~琵琶湖より愛をこめて~ [WEBDL] [1080p] [U-NEXT]【生】
【2023日影】[MagicStar] 飞翔吧埼玉 ~来自琵琶湖的爱~ / 翔んで埼玉 ~琵琶湖より愛をこめて~ [WEBDL] [1080p] [U-NEXT]【生】

General Unique ID                      : 198682055084483653863801208066077145393 (0x9578C59D33AD9351F166048284F0B931) Complete name                  : Tonde.Saitama.Biwako.yori.Ai.wo.Komete.2023.1080p.U-NEXT.WEB-DL.AAC2.0.H.264-MagicStar.mkv Format                         : Matroska Format version                 : Version 4 File size                      : 3.39 GiB Duration                       : 1 h 56 min Overall bit rate               : 4 161 kb/s Frame rate                     : 23.976 FPS Encoded date                   : 2024-05-01 11:06:17 UTC Writing application            : mkvmerge v50.0.0 ('Awakenings') 64-bit Writing library                : libebml v1.4.0 + libmatroska v1.6.2 Cover                          : Yes Attachments                    : cover.png  Video ID                             : 1 Format                         : AVC Format/Info                    : Advanced Video Codec Format profile                 : Main@L4 Format settings                : CABAC / 2 Ref Frames Format settings, CABAC         : Yes Format settings, Reference fra : 2 frames Codec ID                       : V_MPEG4/ISO/AVC Duration                       : 1 h 56 min Bit rate                       : 4 020 kb/s Width                          : 1 920 pixels Height                         : 1 080 pixels Display aspect ratio           : 16:9 Frame rate mode                : Constant Frame rate                     : 23.976 (24000/1001) FPS Original frame rate            : 23.976 (23976/1000) FPS Color space                    : YUV Chroma subsampling             : 4:2:0 Bit depth                      : 8 bits Scan type                      : Progressive Bits/(Pixel*Frame)             : 0.081 Stream size                    : 3.27 GiB (97%) Writing library                : x264 core 148 r2665kMod a01e339 Encoding settings              : cabac=1 / ref=2 / deblock=1:1:1 / analyse=0x1:0x111 / me=tesa / subme=11 / psy=1 / fade_compensate=0.00 / psy_rd=0.40:0.10 / mixed_ref=1 / me_range=48 / chroma_me=1 / trellis=2 / 8x8dct=0 / cqm=0 / deadzone=21,11 / fast_pskip=1 / chroma_qp_offset=-3 / threads=12 / lookahead_threads=1 / sliced_threads=0 / nr=0 / decimate=1 / interlaced=0 / bluray_compat=0 / constrained_intra=0 / fgo=0 / bframes=2 / b_pyramid=0 / b_adapt=2 / b_bias=0 / direct=3 / weightb=1 / open_gop=0 / weightp=2 / keyint=48 / keyint_min=25 / scenecut=0 / intra_refresh=0 / rc_lookahead=48 / rc=2pass / mbtree=1 / bitrate=4020 / ratetol=1.0 / qcomp=0.80 / qpmin=10 / qpmax=69 / qpstep=15 / cplxblur=20.0 / qblur=0.5 / vbv_maxrate=8050 / vbv_bufsize=8050 / nal_hrd=none / filler=0 / ip_ratio=1.40 / aq=2:0.60 Default                        : Yes Forced                         : No  Audio ID                             : 2 Format                         : AAC LC Format/Info                    : Advanced Audio Codec Low Complexity Codec ID                       : A_AAC-2 Duration                       : 1 h 56 min Bit rate                       : 125 kb/s Channel(s)                     : 2 channels Channel layout                 : L R Sampling rate                  : 48.0 kHz Frame rate                     : 46.875 FPS (1024 SPF) Compression mode               : Lossy Stream size                    : 105 MiB (3%) Title                          : 日本語 [オリジナル] Language                       : Japanese Default                        : Yes Forced                         : No

  • BT列表

會員專用連接: 【2023日影】[MagicStar] 飞翔吧埼玉 ~来自琵琶湖的爱~ / 翔んで埼玉 ~琵琶湖より愛をこめて~ [WEBDL] [1080p] [U-NEXT]【生】

Magnet連接: magnet:?xt=urn:btih:F4KPR6FVPWMR4HAZBJLS7QE2QH4JOKQQ

custom protocol

Magnet連接typeII: magnet:?xt=urn:btih:2f14f8f8b57d991e1c190a572fc09a81f8972a10

在线播放: 保存至云端 ?

彈幕播放連接: ddplay:magnet:?xt=urn:btih:F4KPR6FVPWMR4HAZBJLS7QE2QH4JOKQQ 播放器官方下載地址

Tip1:【PCgal汉化合集5000个 8T + 安卓gal汉化合集800个 900G + 漫画合集2300个 100G

警告!网盘内存不足!根本下不完!
Tip2:【包含压缩包或可执行文件,请仔细辨别,查毒
Tip3:善意提醒
对于容量很小的内容请多加留意,多半是捆绑病毒和木马的资源。
对于视频文件采用压缩包形式发布的,也请看清楚其真实的目的,建议坚决抵制该类下载(经验告诉我们,这些大都是捆绑了木马病毒或广告资料或者是加了密码的无良人士发布的)。
如果发现上述问题,请及时向我们举报。

原文链接:https://www.ogsgame.com/wangju/2024/05/197560/,转载请注明出处。如有侵权,联系侵删!

0

评论0

请先

全站精选银河系优质资源,每日急速更新,含游戏,动漫,漫画剧集,破解app等!
显示验证码
没有账号?注册  忘记密码?
隐藏
变装