所有分类
  • 所有分类
  • 站内首发

[日剧][MagicStar] JK与六法全书 / JKと六法全書 EP03 [WEBDL] [1080p] [ABEMA-TV]【生】【解说放送版】【附日字】

簡介: 

HD 1080p from Abema TV.
Japanese subtitles added.
Audio description.
[MagicStar] JK与六法全书 / JKと六法全書 EP03 [WEBDL] [1080p] [ABEMA-TV]【生】【解说放送版】【附日字】
[MagicStar] JK与六法全书 / JKと六法全書 EP03 [WEBDL] [1080p] [ABEMA-TV]【生】【解说放送版】【附日字】

General Unique ID                      : 155112307173956858569327684992768163416 (0x74B18B30C54B05F7DCB90DC7BDB03E58) Complete name                  : JK.to.Roppouzensho.EP03.1080p.ABEMA-TV.WEB-DL.AAC2.0.H.264.Audio.Description-MagicStar.mkv Format                         : Matroska Format version                 : Version 4 File size                      : 1.41 GiB Duration                       : 47 min 59 s Overall bit rate mode          : Variable Overall bit rate               : 4 201 kb/s Frame rate                     : 29.970 FPS Encoded date                   : 2024-05-04 05:00:29 UTC Writing application            : mkvmerge v50.0.0 ('Awakenings') 64-bit Writing library                : libebml v1.4.0 + libmatroska v1.6.2  Video ID                             : 1 Format                         : AVC Format/Info                    : Advanced Video Codec Format profile                 : Main@L3.1 Format settings                : CABAC / 4 Ref Frames Format settings, CABAC         : Yes Format settings, Reference fra : 4 frames Codec ID                       : V_MPEG4/ISO/AVC Duration                       : 47 min 59 s Bit rate mode                  : Variable Bit rate                       : 4 004 kb/s Maximum bit rate               : 40.0 Mb/s Width                          : 1 920 pixels Height                         : 1 080 pixels Display aspect ratio           : 16:9 Frame rate mode                : Constant Frame rate                     : 29.970 (29970/1000) FPS Original frame rate            : 29.970 (30000/1001) FPS Color space                    : YUV Chroma subsampling             : 4:2:0 Bit depth                      : 8 bits Scan type                      : Progressive Bits/(Pixel*Frame)             : 0.064 Stream size                    : 1.34 GiB (95%) Default                        : Yes Forced                         : No  Audio ID                             : 2 Format                         : AAC LC Format/Info                    : Advanced Audio Codec Low Complexity Codec ID                       : A_AAC-2 Duration                       : 47 min 59 s Bit rate                       : 192 kb/s Channel(s)                     : 2 channels Channel layout                 : L R Sampling rate                  : 44.1 kHz Frame rate                     : 43.066 FPS (1024 SPF) Compression mode               : Lossy Stream size                    : 66.7 MiB (5%) Title                          : 日本語 [解説放送音声] Language                       : Japanese Default                        : Yes Forced                         : No

  • BT列表

會員專用連接: [MagicStar] JK与六法全书 / JKと六法全書 EP03 [WEBDL] [1080p] [ABEMA-TV]【生】【解说放送版】【附日字】

Magnet連接: magnet:?xt=urn:btih:AOPUTWFJCK6VELYO4KNYQDROAHCGHTJM

custom protocol

Magnet連接typeII: magnet:?xt=urn:btih:039f49d8a912bd522f0ee29b880e2e01c463cd2c

在线播放: 保存至云端 ?

彈幕播放連接: ddplay:magnet:?xt=urn:btih:AOPUTWFJCK6VELYO4KNYQDROAHCGHTJM 播放器官方下載地址

Tip1:【PCgal汉化合集5000个 8T + 安卓gal汉化合集800个 900G + 漫画合集2300个 100G

警告!网盘内存不足!根本下不完!
Tip2:【包含压缩包或可执行文件,请仔细辨别,查毒
Tip3:善意提醒
对于容量很小的内容请多加留意,多半是捆绑病毒和木马的资源。
对于视频文件采用压缩包形式发布的,也请看清楚其真实的目的,建议坚决抵制该类下载(经验告诉我们,这些大都是捆绑了木马病毒或广告资料或者是加了密码的无良人士发布的)。
如果发现上述问题,请及时向我们举报。

原文链接:https://www.ogsgame.com/wangju/2024/05/197555/,转载请注明出处。如有侵权,联系侵删!

0

评论0

请先

全站精选银河系优质资源,每日急速更新,含游戏,动漫,漫画剧集,破解app等!
显示验证码
没有账号?注册  忘记密码?
隐藏
变装