所有分类
  • 所有分类
  • 站内首发

[日剧][MagicStar] 社内处刑人~她要消灭敌人~ / 社内処刑人~彼女は敵を消していく~ EP01 [WEBDL] [1080p] [DMM-TV] [V0]【生】

簡介: 

HD 1080p from DMM TV.


We are planning to upload all DMM TV Dramas and Movies, we need your Support!


Support Us

Ali (Zhifubao / QR code): https://i.ibb.co/FWV2ggm/1660626347125.png
PayPalMe: https://www.paypal.com/paypalme/sakuragikenji
BTC (USDT): 19y5NF6voysif7PeJLv86Hf186ZS1i4rwu
ETH: 0x807B4eec355Cfa65500BeE65A992a9a0d8432697
LTC: LUC2dTQkte7muv5oUUuRNJimLJvi9pgZUQ


[MagicStar] 社内处刑人~她要消灭敌人~ / 社内処刑人~彼女は敵を消していく~ EP01 [WEBDL] [1080p] [DMM-TV] [V0]【生】
[MagicStar] 社内处刑人~她要消灭敌人~ / 社内処刑人~彼女は敵を消していく~ EP01 [WEBDL] [1080p] [DMM-TV] [V0]【生】

General Unique ID                      : 140978987838354227405812916677023554400 (0x6A0F90BF69B3B051CEF36726310EDB60) Complete name                  : Shanai.Shokeinin.Kanojo.wa.Teki.wo.Keshiteiku.EP01.1080p.DMM-TV.WEB-DL.AAC2.0.H.264.V0-MagicStar.mkv Format                         : Matroska Format version                 : Version 4 File size                      : 854 MiB Duration                       : 24 min 3 s Overall bit rate               : 4 965 kb/s Frame rate                     : 29.970 FPS Encoded date                   : 2024-04-19 03:40:23 UTC Writing application            : mkvmerge v50.0.0 ('Awakenings') 64-bit Writing library                : libebml v1.4.0 + libmatroska v1.6.2 Cover                          : Yes Attachments                    : cover.png  Video ID                             : 1 Format                         : AVC Format/Info                    : Advanced Video Codec Format profile                 : High@L4 Format settings                : CABAC / 1 Ref Frames Format settings, CABAC         : Yes Format settings, Reference fra : 1 frame Format settings, GOP           : M=1, N=24 Codec ID                       : V_MPEG4/ISO/AVC Duration                       : 24 min 3 s Bit rate mode                  : Constant Bit rate                       : 4 743 kb/s Width                          : 1 920 pixels Height                         : 1 080 pixels Display aspect ratio           : 16:9 Frame rate mode                : Constant Frame rate                     : 29.970 (29970/1000) FPS Original frame rate            : 29.970 (30000/1001) FPS Color space                    : YUV Chroma subsampling             : 4:2:0 Bit depth                      : 8 bits Scan type                      : Progressive Bits/(Pixel*Frame)             : 0.076 Stream size                    : 806 MiB (94%) Default                        : Yes Forced                         : No Color range                    : Limited Color primaries                : BT.709 Transfer characteristics       : BT.709 Matrix coefficients            : BT.709  Audio ID                             : 2 Format                         : AAC LC Format/Info                    : Advanced Audio Codec Low Complexity Codec ID                       : A_AAC-2 Duration                       : 24 min 3 s Bit rate                       : 256 kb/s Channel(s)                     : 2 channels Channel layout                 : L R Sampling rate                  : 48.0 kHz Frame rate                     : 46.875 FPS (1024 SPF) Compression mode               : Lossy Stream size                    : 44.0 MiB (5%) Title                          : 日本語 [オリジナル] Language                       : Japanese Default                        : Yes Forced                         : No

  • BT列表

會員專用連接: [MagicStar] 社内处刑人~她要消灭敌人~ / 社内処刑人~彼女は敵を消していく~ EP01 [WEBDL] [1080p] [DMM-TV] [V0]【生】

Magnet連接: magnet:?xt=urn:btih:UXS3FSEYRHEO36DHUNDBULU5WVL6NPS7

custom protocol

Magnet連接typeII: magnet:?xt=urn:btih:a5e5b2c89889c8edf867a3461a2e9db557e6be5f

在线播放: 保存至云端 ?

彈幕播放連接: ddplay:magnet:?xt=urn:btih:UXS3FSEYRHEO36DHUNDBULU5WVL6NPS7 播放器官方下載地址

Tip1:【PCgal汉化合集5000个 8T + 安卓gal汉化合集800个 900G + 漫画合集2300个 100G

警告!网盘内存不足!根本下不完!
Tip2:【包含压缩包或可执行文件,请仔细辨别,查毒
Tip3:善意提醒
对于容量很小的内容请多加留意,多半是捆绑病毒和木马的资源。
对于视频文件采用压缩包形式发布的,也请看清楚其真实的目的,建议坚决抵制该类下载(经验告诉我们,这些大都是捆绑了木马病毒或广告资料或者是加了密码的无良人士发布的)。
如果发现上述问题,请及时向我们举报。

原文链接:https://www.ogsgame.com/wangju/2024/05/197145/,转载请注明出处。如有侵权,联系侵删!

0

评论0

请先

全站精选银河系优质资源,每日急速更新,含游戏,动漫,漫画剧集,破解app等!
显示验证码
没有账号?注册  忘记密码?
隐藏
变装