所有分类
  • 所有分类
  • 站内首发

[日剧][MagicStar] 岂有此理 / 滅相も無い EP01 [WEBDL] [1080p] [Netflix] [V0]【生】【附官方日繁中字幕】

簡介: 

HD 1080p from Netflix.
Japanese and Chinese subtitles added.


Support Us

Ali (Zhifubao / QR code): https://i.ibb.co/FWV2ggm/1660626347125.png
PayPalMe: https://www.paypal.com/paypalme/sakuragikenji
BTC (USDT): 19y5NF6voysif7PeJLv86Hf186ZS1i4rwu
ETH: 0x807B4eec355Cfa65500BeE65A992a9a0d8432697
LTC: LUC2dTQkte7muv5oUUuRNJimLJvi9pgZUQ


[MagicStar] 岂有此理 / 滅相も無い EP01 [WEBDL] [1080p] [Netflix] [V0]【生】【附官方日繁中字幕】
[MagicStar] 岂有此理 / 滅相も無い EP01 [WEBDL] [1080p] [Netflix] [V0]【生】【附官方日繁中字幕】

General Unique ID                      : 338339891670883293890973704796628738675 (0xFE89E493743644EC256A721A88EE6273) Complete name                  : Messoumonai.EP01.1080p.NF.WEB-DL.DDP2.0.H.264.V0-MagicStar.mkv Format                         : Matroska Format version                 : Version 4 File size                      : 1.02 GiB Duration                       : 24 min 0 s Overall bit rate mode          : Constant Overall bit rate               : 6 071 kb/s Frame rate                     : 23.976 FPS Encoded date                   : 2024-04-17 22:59:13 UTC Writing application            : mkvmerge v50.0.0 ('Awakenings') 64-bit Writing library                : libebml v1.4.0 + libmatroska v1.6.2 Cover                          : Yes Attachments                    : cover.png  Video ID                             : 1 Format                         : AVC Format/Info                    : Advanced Video Codec Format profile                 : High@L4 Format settings                : CABAC / 1 Ref Frames Format settings, CABAC         : Yes Format settings, Reference fra : 1 frame Format settings, GOP           : M=1, N=24 Codec ID                       : V_MPEG4/ISO/AVC Duration                       : 24 min 0 s Bit rate mode                  : Constant Bit rate                       : 5 983 kb/s Width                          : 1 920 pixels Height                         : 1 080 pixels Display aspect ratio           : 16:9 Frame rate mode                : Constant Frame rate                     : 23.976 (24000/1001) FPS Color space                    : YUV Chroma subsampling             : 4:2:0 Bit depth                      : 8 bits Scan type                      : Progressive Bits/(Pixel*Frame)             : 0.120 Stream size                    : 1 020 MiB (98%) Default                        : Yes Forced                         : No Color range                    : Limited Color primaries                : BT.709 Transfer characteristics       : BT.709 Matrix coefficients            : BT.709  Audio ID                             : 2 Format                         : E-AC-3 Format/Info                    : Enhanced AC-3 Commercial name                : Dolby Digital Plus Codec ID                       : A_EAC3 Duration                       : 24 min 0 s Bit rate mode                  : Constant Bit rate                       : 128 kb/s Channel(s)                     : 2 channels Channel layout                 : L R Sampling rate                  : 48.0 kHz Frame rate                     : 31.250 FPS (1536 SPF) Compression mode               : Lossy Stream size                    : 22.0 MiB (2%) Title                          : 日本語 [オリジナル] Language                       : Japanese Service kind                   : Complete Main Default                        : Yes Forced                         : No

  • BT列表

會員專用連接: [MagicStar] 岂有此理 / 滅相も無い EP01 [WEBDL] [1080p] [Netflix] [V0]【生】【附官方日繁中字幕】

Magnet連接: magnet:?xt=urn:btih:Z3CGRAYSQDD3NAWYC477IBB7PI52ZG3N

custom protocol

Magnet連接typeII: magnet:?xt=urn:btih:cec468831280c7b682d8173ff4043f7a3bac9b6d

在线播放: 保存至云端 ?

彈幕播放連接: ddplay:magnet:?xt=urn:btih:Z3CGRAYSQDD3NAWYC477IBB7PI52ZG3N 播放器官方下載地址

Tip1:【PCgal汉化合集5000个 8T + 安卓gal汉化合集800个 900G + 漫画合集2300个 100G

警告!网盘内存不足!根本下不完!
Tip2:【包含压缩包或可执行文件,请仔细辨别,查毒
Tip3:善意提醒
对于容量很小的内容请多加留意,多半是捆绑病毒和木马的资源。
对于视频文件采用压缩包形式发布的,也请看清楚其真实的目的,建议坚决抵制该类下载(经验告诉我们,这些大都是捆绑了木马病毒或广告资料或者是加了密码的无良人士发布的)。
如果发现上述问题,请及时向我们举报。

原文链接:https://www.ogsgame.com/wangju/2024/05/197133/,转载请注明出处。如有侵权,联系侵删!

0

评论0

请先

全站精选银河系优质资源,每日急速更新,含游戏,动漫,漫画剧集,破解app等!
显示验证码
没有账号?注册  忘记密码?
隐藏
变装