所有分类
  • 所有分类
  • 站内首发

[日剧][MagicStar] 团团转 ~谁和我恋爱了?~ / くるり ~誰が私と恋をした?~ EP02 [WEBDL] [1080p] [U-NEXT]【生】【附日字&解说放送版音轨】

簡介: 

HD 1080p from U-NEXT.
Japanese subtitles added.
Audio description added.


We are planning to upload all U-NEXT Dramas and Movies, we need your Support!


Support Us

Ali (Zhifubao / QR code): https://i.ibb.co/FWV2ggm/1660626347125.png
PayPalMe: https://www.paypal.com/paypalme/sakuragikenji
BTC (USDT): 19y5NF6voysif7PeJLv86Hf186ZS1i4rwu
ETH: 0x807B4eec355Cfa65500BeE65A992a9a0d8432697
LTC: LUC2dTQkte7muv5oUUuRNJimLJvi9pgZUQ


[MagicStar] 团团转 ~谁和我恋爱了?~ / くるり ~誰が私と恋をした?~ EP02 [WEBDL] [1080p] [U-NEXT]【生】【附日字&解说放送版音轨】
[MagicStar] 团团转 ~谁和我恋爱了?~ / くるり ~誰が私と恋をした?~ EP02 [WEBDL] [1080p] [U-NEXT]【生】【附日字&解说放送版音轨】

General Unique ID                      : 272628601208289120216654481043223087365 (0xCD1A5BD23683B20356453597A5EA0905) Complete name                  : Kururi.Dare.ga.Watashi.to.Koi.wo.Shita.EP02.1080p.U-NEXT.WEB-DL.AAC2.0.H.264-MagicStar.mkv Format                         : Matroska Format version                 : Version 4 File size                      : 1.41 GiB Duration                       : 46 min 53 s Overall bit rate               : 4 307 kb/s Frame rate                     : 29.970 FPS Encoded date                   : 2024-04-17 10:02:39 UTC Writing application            : mkvmerge v50.0.0 ('Awakenings') 64-bit Writing library                : libebml v1.4.0 + libmatroska v1.6.2 Cover                          : Yes Attachments                    : cover.png  Video ID                             : 1 Format                         : AVC Format/Info                    : Advanced Video Codec Format profile                 : Main@L4 Format settings                : CABAC / 3 Ref Frames Format settings, CABAC         : Yes Format settings, Reference fra : 3 frames Codec ID                       : V_MPEG4/ISO/AVC Duration                       : 46 min 52 s Bit rate                       : 4 052 kb/s Width                          : 1 920 pixels Height                         : 1 080 pixels Display aspect ratio           : 16:9 Frame rate mode                : Constant Frame rate                     : 29.970 (29970/1000) FPS Color space                    : YUV Chroma subsampling             : 4:2:0 Bit depth                      : 8 bits Scan type                      : Progressive Bits/(Pixel*Frame)             : 0.065 Stream size                    : 1.32 GiB (94%) Writing library                : x264 core 164 Encoding settings              : cabac=1 / ref=3 / deblock=1:-1:-1 / analyse=0x1:0x111 / me=hex / subme=4 / psy=1 / psy_rd=1.00:0.15 / mixed_ref=0 / me_range=16 / chroma_me=1 / trellis=1 / 8x8dct=0 / cqm=0 / deadzone=21,11 / fast_pskip=1 / chroma_qp_offset=-1 / threads=12 / lookahead_threads=3 / sliced_threads=0 / nr=0 / decimate=1 / interlaced=0 / bluray_compat=0 / constrained_intra=0 / bframes=2 / b_pyramid=0 / b_adapt=2 / b_bias=0 / direct=3 / weightb=1 / open_gop=0 / weightp=1 / keyint=60 / keyint_min=31 / scenecut=0 / intra_refresh=0 / rc_lookahead=20 / rc=2pass / mbtree=1 / bitrate=4052 / ratetol=1.0 / qcomp=0.60 / qpmin=0 / qpmax=69 / qpstep=4 / cplxblur=20.0 / qblur=0.5 / vbv_maxrate=8050 / vbv_bufsize=8050 / nal_hrd=none / filler=0 / ip_ratio=1.40 / aq=1:1.00 Language                       : English Default                        : Yes Forced                         : No Color range                    : Limited Color primaries                : BT.709 Transfer characteristics       : BT.709 Matrix coefficients            : BT.709  Audio #1 ID                             : 2 Format                         : AAC LC Format/Info                    : Advanced Audio Codec Low Complexity Codec ID                       : A_AAC-2 Duration                       : 46 min 53 s Bit rate                       : 128 kb/s Channel(s)                     : 2 channels Channel layout                 : L R Sampling rate                  : 48.0 kHz Frame rate                     : 46.875 FPS (1024 SPF) Compression mode               : Lossy Stream size                    : 42.9 MiB (3%) Title                          : 日本語 [オリジナル] Language                       : Japanese Default                        : Yes Forced                         : No  Audio #2 ID                             : 3 Format                         : AAC LC Format/Info                    : Advanced Audio Codec Low Complexity Codec ID                       : A_AAC-2 Duration                       : 46 min 53 s Bit rate                       : 128 kb/s Channel(s)                     : 2 channels Channel layout                 : L R Sampling rate                  : 48.0 kHz Frame rate                     : 46.875 FPS (1024 SPF) Compression mode               : Lossy Stream size                    : 42.9 MiB (3%) Title                          : 日本語 [解説放送音声] Language                       : Japanese Default                        : No Forced                         : No

  • BT列表

會員專用連接: [MagicStar] 团团转 ~谁和我恋爱了?~ / くるり ~誰が私と恋をした?~ EP02 [WEBDL] [1080p] [U-NEXT]【生】【附日字&解说放送版音轨】

Magnet連接: magnet:?xt=urn:btih:ZCYMCHRXBYPE4YQIUK5S7GE5XKK4WTXU

custom protocol

Magnet連接typeII: magnet:?xt=urn:btih:c8b0c11e370e1e4e6208a2bb2f989dba95cb4ef4

在线播放: 保存至云端 ?

彈幕播放連接: ddplay:magnet:?xt=urn:btih:ZCYMCHRXBYPE4YQIUK5S7GE5XKK4WTXU 播放器官方下載地址

Tip1:【PCgal汉化合集5000个 8T + 安卓gal汉化合集800个 900G + 漫画合集2300个 100G

警告!网盘内存不足!根本下不完!
Tip2:【包含压缩包或可执行文件,请仔细辨别,查毒
Tip3:善意提醒
对于容量很小的内容请多加留意,多半是捆绑病毒和木马的资源。
对于视频文件采用压缩包形式发布的,也请看清楚其真实的目的,建议坚决抵制该类下载(经验告诉我们,这些大都是捆绑了木马病毒或广告资料或者是加了密码的无良人士发布的)。
如果发现上述问题,请及时向我们举报。

原文链接:https://www.ogsgame.com/wangju/2024/05/197126/,转载请注明出处。如有侵权,联系侵删!

0

评论0

请先

全站精选银河系优质资源,每日急速更新,含游戏,动漫,漫画剧集,破解app等!
显示验证码
没有账号?注册  忘记密码?
隐藏
变装