所有分类
  • 所有分类
  • 站内首发

[日剧][MagicStar] 打脏工家族 / 闇バイト家族 EP04 [WEBDL] [1080p] [U-NEXT]【生】【附日字】

簡介: 

HD 1080p from U-NEXT.
Japanese subtitles added.


We are planning to upload all U-NEXT Dramas and Movies, we need your Support!


Support Us

Ali (Zhifubao / QR code): https://i.ibb.co/FWV2ggm/1660626347125.png
PayPalMe: https://www.paypal.com/paypalme/sakuragikenji
ETH (ERC20): 0xea3286E176099E8C9aBaf25A0edf231374C04E89
USDT (BTC / OMNI): 1Lemw6fu5vG3NdvWGxDxsPX7T7yUb3rNzu


[MagicStar] 打脏工家族 / 闇バイト家族 EP04 [WEBDL] [1080p] [U-NEXT]【生】【附日字】
[MagicStar] 打脏工家族 / 闇バイト家族 EP04 [WEBDL] [1080p] [U-NEXT]【生】【附日字】

General Unique ID                      : 218393944347023891042588942019978033694 (0xA44D24CA1E3B0ECD4193E27AD25F7A1E) Complete name                  : Yami.Baito.Kazoku.EP04.1080p.U-NEXT.WEB-DL.AAC2.0.H.264-MagicStar.mkv Format                         : Matroska Format version                 : Version 4 File size                      : 898 MiB Duration                       : 30 min 2 s Overall bit rate               : 4 182 kb/s Frame rate                     : 29.970 FPS Encoded date                   : 2024-02-11 07:57:17 UTC Writing application            : mkvmerge v50.0.0 ('Awakenings') 64-bit Writing library                : libebml v1.4.0 + libmatroska v1.6.2 Cover                          : Yes Attachments                    : cover.png  Video ID                             : 1 Format                         : AVC Format/Info                    : Advanced Video Codec Format profile                 : Main@L4 Format settings                : CABAC / 3 Ref Frames Format settings, CABAC         : Yes Format settings, Reference fra : 3 frames Codec ID                       : V_MPEG4/ISO/AVC Duration                       : 30 min 2 s Bit rate                       : 4 052 kb/s Width                          : 1 920 pixels Height                         : 1 080 pixels Display aspect ratio           : 16:9 Frame rate mode                : Constant Frame rate                     : 29.970 (29970/1000) FPS Color space                    : YUV Chroma subsampling             : 4:2:0 Bit depth                      : 8 bits Scan type                      : Progressive Bits/(Pixel*Frame)             : 0.065 Stream size                    : 868 MiB (97%) Writing library                : x264 core 164 Encoding settings              : cabac=1 / ref=3 / deblock=1:-1:-1 / analyse=0x1:0x111 / me=hex / subme=4 / psy=1 / psy_rd=1.00:0.15 / mixed_ref=0 / me_range=16 / chroma_me=1 / trellis=1 / 8x8dct=0 / cqm=0 / deadzone=21,11 / fast_pskip=1 / chroma_qp_offset=-1 / threads=12 / lookahead_threads=3 / sliced_threads=0 / nr=0 / decimate=1 / interlaced=0 / bluray_compat=0 / constrained_intra=0 / bframes=2 / b_pyramid=0 / b_adapt=2 / b_bias=0 / direct=3 / weightb=1 / open_gop=0 / weightp=1 / keyint=60 / keyint_min=31 / scenecut=0 / intra_refresh=0 / rc_lookahead=20 / rc=2pass / mbtree=1 / bitrate=4052 / ratetol=1.0 / qcomp=0.60 / qpmin=0 / qpmax=69 / qpstep=4 / cplxblur=20.0 / qblur=0.5 / vbv_maxrate=8050 / vbv_bufsize=8050 / nal_hrd=none / filler=0 / ip_ratio=1.40 / aq=1:1.00 Language                       : English Default                        : Yes Forced                         : No  Audio ID                             : 2 Format                         : AAC LC Format/Info                    : Advanced Audio Codec Low Complexity Codec ID                       : A_AAC-2 Duration                       : 30 min 2 s Bit rate                       : 128 kb/s Channel(s)                     : 2 channels Channel layout                 : L R Sampling rate                  : 48.0 kHz Frame rate                     : 46.875 FPS (1024 SPF) Compression mode               : Lossy Stream size                    : 27.5 MiB (3%) Title                          : 日本語 [オリジナル] Language                       : Japanese Default                        : Yes Forced                         : No

  • BT列表

會員專用連接: [MagicStar] 打脏工家族 / 闇バイト家族 EP04 [WEBDL] [1080p] [U-NEXT]【生】【附日字】

Magnet連接: magnet:?xt=urn:btih:TQXKOMUJUGENPW3L7BL2ATFHZ3QYYTGK

custom protocol

Magnet連接typeII: magnet:?xt=urn:btih:9c2ea73289a188d7db6bf857a04ca7cee18c4cca

在线播放: 保存至云端 ?

彈幕播放連接: ddplay:magnet:?xt=urn:btih:TQXKOMUJUGENPW3L7BL2ATFHZ3QYYTGK 播放器官方下載地址

Tip1:【PCgal汉化合集5000个 8T + 安卓gal汉化合集800个 900G + 漫画合集2300个 100G

警告!网盘内存不足!根本下不完!
Tip2:【包含压缩包或可执行文件,请仔细辨别,查毒
Tip3:善意提醒
对于容量很小的内容请多加留意,多半是捆绑病毒和木马的资源。
对于视频文件采用压缩包形式发布的,也请看清楚其真实的目的,建议坚决抵制该类下载(经验告诉我们,这些大都是捆绑了木马病毒或广告资料或者是加了密码的无良人士发布的)。
如果发现上述问题,请及时向我们举报。

原文链接:https://www.ogsgame.com/wangju/2024/02/166889/,转载请注明出处。如有侵权,联系侵删!

0

评论0

请先

显示验证码
没有账号?注册  忘记密码?

社交账号快速登录

微信扫一扫关注
关注后,请回复“登录”二字 获取验证码