所有分类
  • 所有分类
  • 站内首发

[特摄][MagicStar] 牙狼〈GARO〉 钢之继承者 / 牙狼〈GARO〉 ハガネを継ぐ者 EP05 [WEBDL] [1080p] [YOUTUBE]【生】【附官方英语繁中字幕】

簡介: 

HD 1080p from Youtube official channel.
English and Chinese subtitles added.
[MagicStar] 牙狼〈GARO〉 钢之继承者 / 牙狼〈GARO〉 ハガネを継ぐ者 EP05 [WEBDL] [1080p] [YOUTUBE]【生】【附官方英语繁中字幕】
[MagicStar] 牙狼〈GARO〉 钢之继承者 / 牙狼〈GARO〉 ハガネを継ぐ者 EP05 [WEBDL] [1080p] [YOUTUBE]【生】【附官方英语繁中字幕】

General Unique ID                      : 316151396204541541045773453875420038074 (0xEDD88B498C7F9EE30CE288A6A84383BA) Complete name                  : [MagicStar] GARO - Hagane wo Tsugu Mono EP05 [WEBDL] [1080p] [YOUTUBE].mkv Format                         : Matroska Format version                 : Version 4 File size                      : 325 MiB Duration                       : 23 min 40 s Overall bit rate mode          : Variable Overall bit rate               : 1 922 kb/s Frame rate                     : 23.976 FPS Encoded date                   : 2024-02-09 22:36:55 UTC Writing application            : mkvmerge v50.0.0 ('Awakenings') 64-bit Writing library                : libebml v1.4.0 + libmatroska v1.6.2  Video ID                             : 1 Format                         : AVC Format/Info                    : Advanced Video Codec Format profile                 : High@L4 Format settings                : CABAC / 3 Ref Frames Format settings, CABAC         : Yes Format settings, Reference fra : 3 frames Codec ID                       : V_MPEG4/ISO/AVC Duration                       : 23 min 40 s Bit rate mode                  : Variable Bit rate                       : 1 792 kb/s Maximum bit rate               : 40.0 Mb/s Width                          : 1 920 pixels Height                         : 1 080 pixels Display aspect ratio           : 16:9 Frame rate mode                : Constant Frame rate                     : 23.976 (24000/1001) FPS Color space                    : YUV Chroma subsampling             : 4:2:0 Bit depth                      : 8 bits Scan type                      : Progressive Bits/(Pixel*Frame)             : 0.036 Stream size                    : 303 MiB (93%) Default                        : Yes Forced                         : No Color range                    : Limited Color primaries                : BT.709 Transfer characteristics       : BT.709 Matrix coefficients            : BT.709  Audio ID                             : 2 Format                         : AAC LC Format/Info                    : Advanced Audio Codec Low Complexity Codec ID                       : A_AAC-2 Duration                       : 23 min 40 s Bit rate                       : 128 kb/s Channel(s)                     : 2 channels Channel layout                 : L R Sampling rate                  : 44.1 kHz Frame rate                     : 43.066 FPS (1024 SPF) Compression mode               : Lossy Stream size                    : 21.7 MiB (7%) Title                          : 日本語 [オリジナル] Language                       : Japanese Default                        : Yes Forced                         : No

  • BT列表

會員專用連接: [MagicStar] 牙狼〈GARO〉 钢之继承者 / 牙狼〈GARO〉 ハガネを継ぐ者 EP05 [WEBDL] [1080p] [YOUTUBE]【生】【附官方英语繁中字幕】

Magnet連接: magnet:?xt=urn:btih:7NYLS2BKHMVS4INLNHJKLI7E6THZIZ7U

custom protocol

Magnet連接typeII: magnet:?xt=urn:btih:fb70b9682a3b2b2e21ab69d2a5a3e4f4cf9467f4

在线播放: 保存至云端 ?

彈幕播放連接: ddplay:magnet:?xt=urn:btih:7NYLS2BKHMVS4INLNHJKLI7E6THZIZ7U 播放器官方下載地址

Tip1:【PCgal汉化合集5000个 8T + 安卓gal汉化合集800个 900G + 漫画合集2300个 100G

警告!网盘内存不足!根本下不完!
Tip2:【包含压缩包或可执行文件,请仔细辨别,查毒
Tip3:善意提醒
对于容量很小的内容请多加留意,多半是捆绑病毒和木马的资源。
对于视频文件采用压缩包形式发布的,也请看清楚其真实的目的,建议坚决抵制该类下载(经验告诉我们,这些大都是捆绑了木马病毒或广告资料或者是加了密码的无良人士发布的)。
如果发现上述问题,请及时向我们举报。

原文链接:https://www.ogsgame.com/teshe/2024/02/165461/,转载请注明出处。如有侵权,联系侵删!

0

评论0

请先

显示验证码
没有账号?注册  忘记密码?

社交账号快速登录

微信扫一扫关注
关注后,请回复“登录”二字 获取验证码